#TITLE:月光光;
#SUBTITLE:;
#ARTIST:关智斌;
#TITLETRANSLIT:;
#SUBTITLETRANSLIT:;
#ARTISTTRANSLIT:;
#CREDIT:;
#BANNER:¹-logo.jpg;
#BACKGROUND:¹.jpg;
#LYRICSPATH:;
#CDTITLE:Lan.png;
#MUSIC:¹.mp3;
#OFFSET:-0.020;
#SAMPLESTART:100.000;
#SAMPLELENGTH:12.000;
#SELECTABLE:YES;
#BPMS:0.000=140.060;
#STOPS:;
#BGCHANGES:;
// cache tags:
#FIRSTBEAT:3.000;
#LASTBEAT:316.000;
#SONGFILENAME:Songs/lan sky/¹/¹.sm;
#HASMUSIC:1;
#HASBANNER:1;
#MUSICLENGTH:136.924;
// end cache tags

//---------------dance-single - 标准----------------
#NOTES:
     dance-single:
     标准:
     Hard:
     7:
     0.645,0.808,0.672,0.256,0.106,484.000,92.000,35.000,0.000,12.000:


0000
0000
0000
1000
,
0000
0001
0000
1000
0001
0000
1000
0001
,
1000
0000
0001
0000
0001
0000
1000
0000
1000
0000
1000
0010
1000
0010
1000
0010
,
1000
0010
0100
0000
1000
0000
0010
0000
0000
0000
0000
0000
1000
0000
0100
0000
,
0010
0001
0010
0100
0000
0000
0000
0100
,
0000
0000
0000
0000
1000
1000
0000
0000
,
0000
0000
0000
0001
,
0000
0000
0001
1000
0000
0000
0001
0000
,
0001
0000
0000
0010
0000
0010
0000
0010
0001
0100
0001
0100
0001
0100
0001
0100
,
0001
0010
1000
0010
1000
0010
1000
0000
1000
0100
0010
0000
1000
0100
0010
0001
,
1000
0100
0010
0001
1000
0100
0010
0001
1000
0100
0010
0001
1000
0100
0010
0001
,
1001
0000
0000
0101
0000
0000
0000
0000
,
1001
0000
1000
1000
0110
0000
0010
0010
,
1001
0000
0100
0100
1001
0000
0001
0001
,
1001
0000
0010
0101
0110
0000
1000
1000
,
1001
0100
0010
0100
1100
0000
1100
0010
,
0110
1000
0100
0010
1001
0010
0100
1000
,
0110
0010
0001
1001
0100
1000
0101
0010
,
1001
0100
1010
0100
0100
1010
0010
0010
,
1110
1110
0000
0011
1000
0010
0101
0010
,
1001
0010
0100
0100
1001
0100
0010
0100
,
1100
0010
1000
0010
0101
0010
0000
1001
,
0100
0100
1001
0100
0011
0000
1100
0001
,
1000
0000
2002
0000
0000
0000
0000
0000
3003
0000
0000
0000
1000
0100
0010
0000
,
0001
0100
0001
0100
1000
0100
0001
0010
,
0100
1000
0010
0010
1000
0010
1000
0010
,
0002
0000
0000
0003
1000
0100
0110
0000
,
1001
0000
1000
0000
0101
0101
0101
0000
,
2000
0000
0000
3000
0022
0000
0000
0033
,
2010
0000
0100
0000
0010
0000
0001
3000
0001
0000
0010
0000
0100
0000
0000
0000
,
1000
0100
0010
0100
0010
0001
0010
0001
,
1000
0100
0100
0010
0010
0001
0001
1000
,
2000
0000
3120
0000
,
2031
0000
3120
0000
,
2032
0000
0010
0100
0000
3003
2000
0000
,
0002
0000
3003
0000
,
2020
0000
0000
3030
0202
0000
0000
0303
,
2001
0000
0010
0000
0001
0000
0010
3000
0010
0000
0001
0000
0100
0000
0000
0000
,
1000
0000
0100
0000
0010
0100
0000
0000
0010
0000
0001
0000
0010
0000
0001
0000
,
1000
0100
0100
0010
0010
0001
0001
1000
,
0100
0010
0001
0010
0010
1000
0100
0001
,
1010
0100
0011
0001
1001
0010
0001
0100
,
0002
0000
0000
0000
0000
0000
2000
0000
0000
0003
0000
0000
0000
0000
0000
3000
,
0010
0001
1000
0100
0010
0001
0010
0010
,
1010
0000
0001
1001
0010
0010
1001
0000
,
0110
1000
0010
0100
0001
0001
0001
0000
,
0110
1000
1000
0100
0001
0010
0010
1000
,
0010
0010
0001
1000
0010
0100
0010
0001
,
1000
0100
0010
0001
0011
0100
0001
0010
,
1100
0010
0001
0010
1100
0100
1100
0001
,
1100
0010
1001
0010
0110
0100
1010
0010
,
1001
0010
0101
0010
0110
0100
1010
0010
,
1111
0000
1011
0000
,
0111
0000
1110
0000
,
2002
0000
0000
0000
0000
0000
0000
0000
0000
0000
0000
0000
0000
3003
0000
0000
,
1000
0000
0100
0000
0010
0000
0001
0000
0001
0000
0010
0000
1000
0100
0010
0001
,
0000
0001
1000
0100
0010
0001
0010
1000
,
0100
0010
0010
0100
1000
0010
0001
0000
,
0002
0010
0010
1000
,
0010
0000
1000
0000
0100
0000
0010
0100
,
2003
0000
0000
3000
0022
0000
0000
0033
,
2010
0000
0100
0000
0010
0000
0001
3000
0001
0000
0010
0000
0100
0000
0000
0000
,
1000
0100
0100
0010
0010
0001
0001
1000
,
0100
0010
0001
0010
0010
1000
0100
0001
,
1010
0100
0011
0001
1001
0010
0001
0100
,
0002
0000
0000
2000
0000
0000
3003
0100
,
0010
0010
1001
0010
0100
1010
0001
0010
,
1010
0010
0001
0010
1000
0010
0001
0010
,
1010
0010
0001
0010
1000
0010
0001
0100
,
1000
0010
0001
0010
0100
0010
1000
0010
,
0001
0110
0100
1010
0010
1001
0010
1010
,
0001
0110
0100
1010
0010
1001
0010
1010
,
2001
0000
3002
0000
,
0203
0000
0000
0000
0300
0000
1000
1000
,
1000
0001
0001
0001
0100
0000
0100
0000
,
1000
0100
0010
0100
0001
0100
1000
0010
,
0010
0001
1000
0000
0010
0000
0001
0000
,
1001
0100
0001
1100
,
0002
0000
0000
0000
,
0003
0000
0000
0000
;
